#TITLE:Im a Gangster;
#SUBTITLE:(HELLA FUNNY!!);
#ARTIST:some crazy white guy;
#TITLETRANSLIT:;
#SUBTITLETRANSLIT:;
#ARTISTTRANSLIT:;
#CREDIT:;
#BANNER:;
#BACKGROUND:;
#LYRICSPATH:;
#CDTITLE:;
#MUSIC:Josh Tobin - Im A Gangster.mp3;
#OFFSET:-0.090;
#SAMPLESTART:41.995;
#SAMPLELENGTH:11.500;
#SELECTABLE:YES;
#BPMS:0.000=166.000;
#STOPS:;
#BGCHANGES:;
// cache tags:
#FIRSTBEAT:6.667;
#LASTBEAT:506.500;
#SONGFILENAME:Songs/Music V.I.P ^_^/Im a Gangster/Im a Gangster.sm;
#HASMUSIC:1;
#HASBANNER:0;
#MUSICLENGTH:192.843;
// end cache tags

//---------------dance-single - ----------------
#NOTES:
     dance-single:
     :
     Hard:
     7:
     0.422,0.525,0.010,0.010,0.970,566.000,2.000,2.000,0.000,0.000:
0000
0000
0000
0000
,
0000
0000
0000
0000
0000
0000
0000
0000
1000
0000
0001
0000
,
0100
0000
0010
0000
1000
0000
0100
0000
0010
0000
0001
0100
,
0000
0010
0000
1000
0000
0000
0000
0000
0000
0000
0000
0000
,
0100
0000
0000
0000
0000
0000
0100
0000
0100
0000
0000
0000
,
1000
0010
0100
0000
0001
0010
0000
0000
0000
0000
0100
0000
,
0000
0000
0000
0000
1000
0010
0000
0100
0000
0000
0000
0000
,
0000
0001
0000
1000
0000
0000
0100
0010
0000
0001
0100
0000
,
0010
0000
0000
0000
0000
1000
0000
0000
0000
0000
0000
0000
,
0000
0100
0010
0000
0000
0000
0000
0000
0000
0001
0000
0000
,
0100
0010
0000
1000
0000
0100
0000
0010
0000
0000
0000
0000
,
0001
0000
0000
0001
0000
0000
0000
0010
0000
0000
0000
1000
,
0000
0000
0100
0000
0000
0000
0010
0000
0000
0000
0000
0000
,
0001
0000
0100
0000
0000
0000
0010
0000
0000
0000
0000
1000
,
0000
0000
0100
0000
0000
0000
0010
0000
0000
0000
0001
0000
,
0000
0100
0000
0000
0000
0010
0000
0000
0000
0000
1000
0000
,
0000
0100
0000
0000
0010
0000
0000
0001
0000
0000
0100
0000
,
0000
0010
0000
0000
1000
0000
0100
0000
0000
0010
0000
0000
,
0001
0000
0000
0000
0000
0100
0000
0000
0000
0010
0000
0000
,
1000
0000
0000
0000
0000
0100
0000
0000
0000
0010
0000
0000
,
0001
0000
0100
0000
0000
0010
0000
0000
1000
0000
0000
0100
,
0000
0000
0000
0000
0010
0000
0000
0000
0001
0000
0000
0010
,
0000
0000
0000
0000
0100
0000
0000
0000
1000
0000
0000
0010
,
0000
0000
0000
0000
0100
0000
0000
0000
0000
0000
0000
0001
,
0000
0000
0010
0000
0000
1000
0000
0100
0000
0000
0010
0000
,
0000
0000
0000
1000
0000
0000
0000
0010
0000
0100
0010
0100
,
0000
0001
0000
0000
0000
0000
0000
0100
0000
1000
0010
0000
,
0000
0100
0000
0000
0002
0000
0000
0003
0000
0000
0010
0100
,
0000
1000
0000
0010
0000
0000
0000
0100
0001
0000
0010
0000
,
0100
0000
1000
0000
0000
0000
0010
0000
0100
0001
0000
0010
,
0100
0000
1000
0000
0000
0000
0010
0000
0100
0001
0000
0000
,
0010
0000
0100
0000
0000
0000
0000
0000
1000
0010
0000
0100
,
0000
0001
0000
0010
0100
0000
1000
0000
0000
0010
0100
0000
,
0000
0001
0000
0000
0000
0010
0000
0001
0000
0010
0100
0000
,
0000
1000
0000
0010
0000
0000
0100
0001
0000
0000
0010
0000
,
0100
0000
1000
0000
0000
0000
0000
0010
1000
0000
0100
0000
,
0010
0000
0000
0000
0000
0000
0001
0000
0100
0000
0010
0000
,
1000
0000
0000
0000
0000
0000
0100
0010
0000
0001
0100
0000
,
0010
0000
1000
0000
0100
0010
0000
0001
0000
0100
0010
1000
,
0000
0100
0000
0000
0000
0000
0010
0000
0000
0001
0000
0010
,
0000
0100
0000
0000
0000
0000
0100
0000
0000
1000
0010
0000
,
0000
0000
0000
0000
0000
0010
0001
0000
0010
0100
0000
1000
,
0010
0000
0100
0000
0000
0001
0010
0000
0100
0000
1000
0000
,
0000
0000
0000
0000
0010
0100
0000
0010
0100
0000
0010
0100
,
0000
0000
0000
0001
0000
0000
0000
0000
0100
0100
0000
0000
,
0000
0000
1000
0000
0010
0000
0010
0000
0100
0000
0000
0000
,
0000
0000
0002
0000
0000
0000
0003
1000
0000
0100
0000
0000
,
0000
0010
0001
0000
0100
0000
0000
0010
0000
0000
0000
0000
,
0000
1000
0000
0000
0100
0000
0010
0000
0001
0000
0000
0000
,
0100
0000
0010
1000
0000
0000
0100
0000
0000
0000
0000
0000
,
0010
0000
0001
0100
0000
0000
0010
1000
0000
0100
0010
0000
,
0001
0100
0000
0010
0000
0000
1000
0000
0000
0000
0010
0000
,
0100
0010
1000
0000
0010
1000
0000
0010
0000
0000
0000
0000
,
0010
0100
0000
0010
0000
0100
0000
0001
0000
0000
0000
0010
,
0000
0100
1000
0000
0000
0010
0100
0000
0000
0000
1000
0001
,
0000
0000
0010
0100
0000
0010
1000
0000
0001
0010
0000
0100
,
1000
0000
0001
0000
0100
0000
0010
0000
0000
1010
0000
0000
,
0100
1000
0000
0000
0001
0000
0010
0000
0000
0000
0100
1000
,
0000
0010
0000
0000
0100
0010
0000
0000
0000
0000
0000
0000
,
0001
0100
0000
0000
0100
0000
0010
0000
0000
0000
0100
1000
,
0010
0000
0000
0100
0000
0001
0000
0000
0000
0000
0010
0000
,
0100
1000
0010
0100
0000
0001
0010
0000
1100
0000
0010
0100
,
0000
0000
0001
0000
0010
0000
0000
0000
0000
0100
0000
1000
,
0010
0000
0100
0001
0000
0010
0100
0000
1000
0010
0100
0000
,
0010
0000
0100
0010
0000
0000
0000
0000
0000
0100
0000
0001
,
0100
0000
0001
0010
0000
0001
0010
0001
0000
0010
0100
0000
,
0010
0100
0000
1000
0100
0000
0000
0000
0000
0000
1000
0000
,
0000
0010
0000
0000
0100
0000
0000
0001
0000
0000
0010
0000
,
0100
0000
0000
1000
0000
0000
0000
0000
0000
0000
0001
0000
,
0000
0000
0000
0000
0010
0000
0000
0000
0000
0000
1000
0000
,
0000
0100
0000
0000
0010
0000
0000
0000
0000
0001
0000
0000
,
0000
0100
0000
0010
,
1000
0000
0000
0100
0000
0000
0000
0000
0010
0000
0000
0000
,
0000
0000
0001
0000
0000
0000
0000
0000
0100
0000
0000
0000
,
0010
0000
0000
1000
0000
0000
0000
0000
0100
0000
0000
0000
,
0000
0000
0010
0000
0000
0000
0000
0000
0001
0000
0000
0000
,
0000
0000
0100
0000
0000
0000
0000
0000
0010
0000
0000
0000
,
0000
1000
0000
0000
0000
0000
0000
0100
0000
0000
0000
0000
,
0010
0000
0000
0000
0000
0000
0000
0001
0000
0000
0100
0000
,
0000
0010
0000
0000
1000
0000
0000
0100
0000
0000
0010
0000
,
0000
0000
0000
0000
0001
0100
0010
0000
1000
0100
0010
0000
,
0001
0100
0000
0010
1000
0100
0010
0000
0000
0001
0100
0000
,
0010
0000
1000
0000
0000
0100
0010
0000
0001
0100
0010
1000
,
0000
0100
0010
0000
0001
0100
0010
0000
0100
0000
0010
0000
,
0000
0000
1000
0000
0100
0010
0100
0000
0010
0001
0000
0010
,
0000
0001
0010
0000
0100
0010
0000
0100
0000
1000
0000
0000
,
0000
0000
0000
0000
0000
1000
0010
0100
0000
0001
0000
0010
,
0000
0000
0100
0000
0000
0100
0100
0100
0000
0100
0000
0000
,
0000
0010
1000
0000
0100
0010
0000
0001
0100
0000
0010
1000
,
0000
0100
0000
0010
0000
0001
0100
0010
0000
1000
0100
0010
,
0000
0000
0000
0000
0000
0001
0000
0100
0010
1000
0000
0100
,
0000
0010
0001
0000
1000
0010
0000
1000
0000
0100
0000
0000
,
0010
0000
0001
0100
0010
0000
1000
0000
0000
0000
0000
0100
,
0000
0010
0000
0001
0000
0100
0010
1000
0000
0100
0010
0000
,
0001
0100
0010
0000
0000
1000
0000
0000
0000
0000
0000
0100
,
0000
0000
0010
0000
0000
0001
0100
0010
0000
1000
0000
0100
,
0010
0000
0001
0000
0000
0010
0000
0000
0000
0000
0010
0000
,
0000
0100
0000
1000
0010
0000
0100
0000
0000
0000
0001
0010
,
0000
0100
0000
0000
1000
0000
0000
0000
0000
0000
0010
0100
,
0001
0000
0010
0100
0000
1000
0000
0010
0000
0000
0000
0000
,
0010
0000
0000
0001
,
0100
0000
0000
0010
1000
0000
0000
0000
0000
0000
0000
0000
,
0100
0000
0000
0000
,
0010
0000
0000
0010
0000
0000
1000
0000
0000
0000
0000
0001
,
0000
0000
0000
0000
0100
0000
0000
0000
0000
0000
0010
0000
,
0000
0000
0000
0000
1000
0000
0000
0000
0000
0000
0000
0100
,
0000
0000
0000
0000
0000
0010
0000
0000
0000
0000
0000
0001
,
0000
0000
0000
0000
0100
0000
0000
0000
0000
0000
0010
1000
,
0000
0100
0010
0000
0001
0000
0000
0100
0000
0010
0000
0000
,
1000
0000
0000
0100
0000
0000
0000
0000
0000
0010
0001
0000
,
0100
0000
0010
0000
1000
0100
0000
0010
0000
0001
0000
0100
,
0010
0000
0100
0010
0000
0100
0000
0000
0010
0000
0000
0010
,
0000
0010
0000
0000
0000
0000
0000
0000
1000
0000
0100
0000
,
0010
0000
0000
0001
0000
0000
0000
0000
0000
0100
0000
0010
,
0000
1000
0100
0000
0000
0000
0000
0000
0000
0010
0000
0010
,
0000
0000
0001
0000
0000
0000
0000
0000
0100
0010
1000
0000
,
0100
0000
0010
0001
0000
0100
0000
0000
0010
0000
1000
0000
,
0100
0000
0000
0000
0000
0010
0000
0001
0000
0100
0010
0000
,
1000
0000
0100
0000
0010
0000
0000
1000
0000
0000
0100
0000
,
0010
0000
0000
0000
0001
0000
0100
0010
0000
0000
1000
0000
,
0100
0000
0010
0000
0001
0000
0100
0000
0010
1000
0000
0100
,
0010
0000
0001
0100
0000
0000
0000
0000
0000
0010
0000
0000
,
0000
0000
1000
0000
0100
0000
0010
0000
0001
0000
0000
0000
,
0000
0000
0100
0000
0010
0000
0000
1000
0000
0000
0000
0100
,
0000
0010
0000
0000
0000
0000
0001
0000
0000
0001
0000
0000
,
0000
0000
0001
0000
0000
0000
0000
0000
0001
0000
0000
0000
,
0000
0000
0001
0000
0000
0000
0000
0000
0000
0000
0000
0000
0000
0000
0001
0001
0000
0000
0000
0000
0000
0000
0000
0000
;
